Download Super Singh 2017 DVD SCR Punjabi 720P

Download Super Singh 2017 DVD SCR Punjabi 720P full hd movie and enjoy free movie watch film at your home. Super Singh 2017 DVD SCR Punjabi Full Hd in best fit format.we also provide movies in HDCam rip. If you are looking film Super Singh 2017 DVD SCR Punjabi movie you can download via torrent all the movies provided on Filmi Girl. Hd Movie Super Singh 2017 DVD SCR download start directly via 3rd party hosts fast speed like google drive there we do not place any type of advertisement like spam links, pops or survey forms.

Super Singh 2017 Full Hd Movie Screen Shot Sample

Super Singh 2017 Full Hd Movie Details

Full Movie Size: 670 MB
Movie Uploaded Date: 23 June 2017
Up-loader Person: Cristine

Download 480P Full

Video
ID : 1
Codec ID : V_MPEG4/ISO/AVC
Duration : 2 h 31 min
Bit rate : 512 kb/s
Width : 640 pixels
Height : 480 pixels
Display aspect ratio : 2.2:1
Original display aspect ratio : 2.2:1
Frame rate mode : Constant
Frame rate : 25.000 FPS
Stream size : 564 MiB (84%)
Writing library : x264 core 77

Audio
Format : AAC
Duration : 2 h 31 min
Bit rate : 96.0 kb/s
Channel(s) : 2 channels
Channel positions : Front: L R
Sampling rate : 44.1 kHz
Frame rate : 43.066 FPS (1024 spf)
Compression mode : Lossy
Stream size : 104 MiB (16%

Super Singh 2017 Full Movie HD Trailer

Super Singh 2017 Full Movie Download Direct Server

Filmi Girl is best website in movie download sites as you can download full hd 720p movies have full free to download with HQ film. Here we provide movies for personal home and private use only. We Embed direct download movies link only in best result. Super Singh 2017 mkv movies download dual audio BrRip, CapRip, HdCam Mkv file also like AVI DvdRip in torrent download.
super singh download
super singh downloadming
super singh download movie
super singh download full movie
super singh download mp3
super singh download trailer
super star honey singh download
superman honey singh download
jagjit singh superhit ghazal download
super singh download songs
arijit singh superhit songs download
super star by honey singh download
honey singh superstar song free download
jagjit singh superhit ghazals free download
honey singh super hits free download
honey singh super songs free download
honey singh superhit songs free download
download honey singh super hit songs
download honey singh super hits
honey singh superstar mp3 download
honey singh super hit mp3 download
super star honey singh song mp3 download
honey singh superman mp3 download
honey singh super songs download
honey singh superstar song download
super hit honey singh songs download
pawan singh superhit song download
jagjit singh super hit songs download
honey singh superman song download
mika singh superhit songs download
yo yo honey singh super songs download
honey singh superstar video download

About Christine

I am Christine i know how to download movies in best result old and new movies. so i decided to provide movies online free of cost with the easy method for all device users who are facing downloading of movies at home or office. I am sharing movies worldwide keep visiting me.

Leave a Reply